acg路manhua路com,禁漫福利导航_[MagicStar] DOGENGERS 高校篇 / ドゲンジャーズ~ハイスクール~ EP11 [WEBDL] [1080p] [AMZN]【生】

HD 1080p from Prime Video.
Use CBR bitrate mode.
acg路manhua路com,禁漫福利导航_[MagicStar] DOGENGERS 高校篇 / ドゲンジャーズ~ハイスクール~ EP11 [WEBDL] [1080p] [AMZN]【生】
acg路manhua路com,禁漫福利导航_[MagicStar] DOGENGERS 高校篇 / ドゲンジャーズ~ハイスクール~ EP11 [WEBDL] [1080p] [AMZN]【生】

General Unique ID                      : 198263281482540038512061907956018906958 (0x95281E7B3D0CD1649E7D8F55BF07074E) Complete name                  : Dogengers.High.School.EP11.1080p.AMZN.WEB-DL.DDP2.0.H.264-MagicStar.mkv Format                         : Matroska Format version                 : Version 4 File size                      : 1.31 GiB Duration                       : 19 min 0 s Overall bit rate mode          : Constant Overall bit rate               : 9 835 kb/s Encoded date                   : UTC 2022-06-20 02:54:14 Writing application            : mkvmerge v50.0.0 ('Awakenings') 64-bit Writing library                : libebml v1.4.0 + libmatroska v1.6.2 Cover                          : Yes Attachments                    : cover.png  Video ID                             : 1 Format                         : AVC Format/Info                    : Advanced Video Codec Format profile                 : [email protected] Format settings                : CABAC / 4 Ref Frames Format settings, CABAC         : Yes Format settings, Reference fra : 4 frames Codec ID                       : V_MPEG4/ISO/AVC Duration                       : 19 min 0 s Bit rate mode                  : Constant Bit rate                       : 10 000 kb/s Width                          : 1 920 pixels Height                         : 1 080 pixels Display aspect ratio           : 16:9 Frame rate mode                : Constant Frame rate                     : 29.970 (29970/1000) FPS Original frame rate            : 29.970 (30000/1001) FPS Color space                    : YUV Chroma subsampling             : 4:2:0 Bit depth                      : 8 bits Scan type                      : Progressive Bits/(Pixel*Frame)             : 0.161 Stream size                    : 1.27 GiB (97%) Default                        : Yes Forced                         : No Color range                    : Limited Color primaries                : BT.709 Transfer characteristics       : BT.709 Matrix coefficients            : BT.709  Audio ID                             : 2 Format                         : E-AC-3 Format/Info                    : Enhanced AC-3 Commercial name                : Dolby Digital Plus Codec ID                       : A_EAC3 Duration                       : 19 min 0 s Bit rate mode                  : Constant Bit rate                       : 224 kb/s Channel(s)                     : 2 channels Channel layout                 : L R Sampling rate                  : 48.0 kHz Frame rate                     : 31.250 FPS (1536 SPF) Compression mode               : Lossy Stream size                    : 30.4 MiB (2%) Language                       : Japanese Service kind                   : Complete Main Default                        : Yes Forced                         : No

【合集】[MagicStar] 医疗小组 达芬奇女士的诊断 / メディカルチーム レディ・ダ・ヴィンチの診断 [WEBDL] [1080p] [AMZN]【生】

相关文章