二次元漫画全彩,精选acg动漫导航网址_[MagicStar] 恶女~谁说事情不酷的?~ 最终回 / 悪女(わる)~働くのがカッコ悪いなんて誰が言った?~ EP10 END [WEBDL] [1080p] [HULU]【生】【附日字】

HD 1080p from HULU JAPAN.
二次元漫画全彩,精选acg动漫导航网址_[MagicStar] 恶女~谁说事情不酷的?~ 最终回 / 悪女(わる)~働くのがカッコ悪いなんて誰が言った?~ EP10 END [WEBDL] [1080p] [HULU]【生】【附日字】
二次元漫画全彩,精选acg动漫导航网址_[MagicStar] 恶女~谁说事情不酷的?~ 最终回 / 悪女(わる)~働くのがカッコ悪いなんて誰が言った?~ EP10 END [WEBDL] [1080p] [HULU]【生】【附日字】

General Unique ID                      : 50916125211438274188404662352582707664 (0x264E16C9FE882AD994E31D09265A89D0) Complete name                  : Waru.Hataraku.no.ga.Kakko.Warui.Nante.Dare.ga.Itta.EP10.1080p.HULU.WEB-DL.AAC2.0.H.264-MagicStar.mkv Format                         : Matroska Format version                 : Version 4 File size                      : 1.23 GiB Duration                       : 51 min 6 s Overall bit rate               : 3 455 kb/s Encoded date                   : UTC 2022-06-17 00:07:59 Writing application            : mkvmerge v50.0.0 ('Awakenings') 64-bit Writing library                : libebml v1.4.0 + libmatroska v1.6.2 Cover                          : Yes Attachments                    : cover.png  Video ID                             : 1 Format                         : AVC Format/Info                    : Advanced Video Codec Format profile                 : [email protected] Format settings                : CABAC / 4 Ref Frames Format settings, CABAC         : Yes Format settings, Reference fra : 4 frames Codec ID                       : V_MPEG4/ISO/AVC Duration                       : 51 min 5 s Bit rate                       : 3 327 kb/s Width                          : 1 920 pixels Height                         : 1 080 pixels Display aspect ratio           : 16:9 Frame rate mode                : Constant Frame rate                     : 29.970 (29970/1000) FPS Original frame rate            : 29.970 (30000/1001) FPS Color space                    : YUV Chroma subsampling             : 4:2:0 Bit depth                      : 8 bits Scan type                      : Progressive Bits/(Pixel*Frame)             : 0.054 Stream size                    : 1.19 GiB (96%) Default                        : Yes Forced                         : No Color range                    : Limited Color primaries                : BT.709 Transfer characteristics       : BT.709 Matrix coefficients            : BT.709  Audio ID                             : 2 Format                         : AAC LC Format/Info                    : Advanced Audio Codec Low Complexity Codec ID                       : A_AAC-2 Duration                       : 51 min 6 s Bit rate                       : 125 kb/s Channel(s)                     : 2 channels Channel layout                 : L R Sampling rate                  : 48.0 kHz Frame rate                     : 46.875 FPS (1024 SPF) Compression mode               : Lossy Stream size                    : 45.8 MiB (4%) Language                       : Japanese Default                        : Yes Forced                         : No

[MagicStar] 恶男~谁说恋爱的男子很逊的?~ / 悪男(わる)~恋する男がカッコ悪いなんて誰が言った?~ [WEBDL] [1080p]【生】

相关文章