[MagicStar] 单恋美食家日志 第二季 / 片恋グルメ日記2 EP04 [WEBDL] [1080p] [HULU]【生】_669acg. com,acg漫画网海贼王同人志

HD 1080p from HULU JAPAN.
[MagicStar] 单恋美食家日志 第二季 / 片恋グルメ日記2 EP04 [WEBDL] [1080p] [HULU]【生】_669acg. com,acg漫画网海贼王同人志
[MagicStar] 单恋美食家日志 第二季 / 片恋グルメ日記2 EP04 [WEBDL] [1080p] [HULU]【生】_669acg. com,acg漫画网海贼王同人志

General Unique ID                      : 249348227933272275669161340685695291876 (0xBB96B8CCD7D8207B11D1DADDA0E391E4) Complete name                  : Katakoi.Gurume.Nikki.S02EP04.1080p.HULU.WEB-DL.AAC2.0.H.264-MagicStar.mkv Format                         : Matroska Format version                 : Version 4 File size                      : 513 MiB Duration                       : 24 min 47 s Overall bit rate               : 2 892 kb/s Encoded date                   : UTC 2022-06-15 11:20:25 Writing application            : mkvmerge v50.0.0 ('Awakenings') 64-bit Writing library                : libebml v1.4.0 + libmatroska v1.6.2 Cover                          : Yes Attachments                    : cover.png  Video ID                             : 1 Format                         : AVC Format/Info                    : Advanced Video Codec Format profile                 : [email protected] Format settings                : CABAC / 4 Ref Frames Format settings, CABAC         : Yes Format settings, Reference fra : 4 frames Codec ID                       : V_MPEG4/ISO/AVC Duration                       : 24 min 47 s Bit rate                       : 2 764 kb/s Width                          : 1 920 pixels Height                         : 1 080 pixels Display aspect ratio           : 16:9 Frame rate mode                : Constant Frame rate                     : 29.970 (29970/1000) FPS Original frame rate            : 29.970 (30000/1001) FPS Color space                    : YUV Chroma subsampling             : 4:2:0 Bit depth                      : 8 bits Scan type                      : Progressive Bits/(Pixel*Frame)             : 0.044 Stream size                    : 490 MiB (96%) Default                        : Yes Forced                         : No Color range                    : Limited Color primaries                : BT.709 Transfer characteristics       : BT.709 Matrix coefficients            : BT.709  Audio ID                             : 2 Format                         : AAC LC Format/Info                    : Advanced Audio Codec Low Complexity Codec ID                       : A_AAC-2 Duration                       : 24 min 47 s Bit rate                       : 125 kb/s Channel(s)                     : 2 channels Channel layout                 : L R Sampling rate                  : 48.0 kHz Frame rate                     : 46.875 FPS (1024 SPF) Compression mode               : Lossy Stream size                    : 22.2 MiB (4%) Language                       : Japanese Default                        : Yes Forced                         : No

[MagicStar] 理想的男友 / 理想ノカレシ EP03 [WEBDL] [1080p]【生】【附日字】

相关文章