星宫bt里导航,cosplay里番_【日影】[MagicStar] 活如恶狼 / 生きている狼 1964 [WEBDL] [1080p] [AMZN]【生】

HD 1080p from Prime Video.
Use CBR bitrate mode.
星宫bt里导航,cosplay里番_【日影】[MagicStar] 活如恶狼 / 生きている狼 1964 [WEBDL] [1080p] [AMZN]【生】
星宫bt里导航,cosplay里番_【日影】[MagicStar] 活如恶狼 / 生きている狼 1964 [WEBDL] [1080p] [AMZN]【生】

General Unique ID                      : 181446989992179351638550663546934712621 (0x88816B4C65D1FF8FEDCA597B4D64D92D) Complete name                  : Ikiteiru.Ookami.1964.1080p.AMZN.WEB-DL.DDP2.0.H.264-MagicStar.mkv Format                         : Matroska Format version                 : Version 4 File size                      : 5.83 GiB Duration                       : 1 h 23 min Overall bit rate mode          : Constant Overall bit rate               : 9 974 kb/s Encoded date                   : UTC 2022-06-14 03:15:30 Writing application            : mkvmerge v50.0.0 ('Awakenings') 64-bit Writing library                : libebml v1.4.0 + libmatroska v1.6.2 Cover                          : Yes Attachments                    : cover.png  Video ID                             : 1 Format                         : AVC Format/Info                    : Advanced Video Codec Format profile                 : [email protected] Format settings                : CABAC / 4 Ref Frames Format settings, CABAC         : Yes Format settings, Reference fra : 4 frames Codec ID                       : V_MPEG4/ISO/AVC Duration                       : 1 h 23 min Bit rate mode                  : Constant Bit rate                       : 10 000 kb/s Width                          : 1 920 pixels Height                         : 800 pixels Display aspect ratio           : 2.40:1 Frame rate mode                : Constant Frame rate                     : 29.970 (29970/1000) FPS Original frame rate            : 29.970 (30000/1001) FPS Color space                    : YUV Chroma subsampling             : 4:2:0 Bit depth                      : 8 bits Scan type                      : Progressive Bits/(Pixel*Frame)             : 0.217 Stream size                    : 5.70 GiB (98%) Default                        : Yes Forced                         : No Color range                    : Limited Color primaries                : BT.709 Transfer characteristics       : BT.709 Matrix coefficients            : BT.709  Audio ID                             : 2 Format                         : E-AC-3 Format/Info                    : Enhanced AC-3 Commercial name                : Dolby Digital Plus Codec ID                       : A_EAC3 Duration                       : 1 h 23 min Bit rate mode                  : Constant Bit rate                       : 224 kb/s Channel(s)                     : 2 channels Channel layout                 : L R Sampling rate                  : 48.0 kHz Frame rate                     : 31.250 FPS (1536 SPF) Compression mode               : Lossy Stream size                    : 134 MiB (2%) Language                       : Japanese Service kind                   : Complete Main Default                        : Yes Forced                         : No

日影】[MagicStar] 肉体之门 / 肉体の門 1964 [WEBDL] [1080p] [AMZN]【生】

相关文章