【2020日影】[MagicStar] 星之子 / 星の子 [WEBDL] [1080p] [AMZN]【生】【附日字】_二次元裸体图本子库网站,全彩熟女acg漫画

HD 1080p from Prime Video.
Use CBR bitrate mode. Japanese subtitles added.
Blu-ray disc has been released on March 3, 2021.
If you like this movie, please support the authority version.
【2020日影】[MagicStar] 星之子 / 星の子 [WEBDL] [1080p] [AMZN]【生】【附日字】_二次元裸体图本子库网站,全彩熟女acg漫画
【2020日影】[MagicStar] 星之子 / 星の子 [WEBDL] [1080p] [AMZN]【生】【附日字】_二次元裸体图本子库网站,全彩熟女acg漫画

General Unique ID                      : 25466039208004232977875910484427241354 (0x132894ABDF505C7698547F8C38F7778A) Complete name                  : Hoshi.no.Ko.2020.1080p.AMZN.WEB-DL.DDP5.1.H.264-MagicStar.mkv Format                         : Matroska Format version                 : Version 4 File size                      : 6.26 GiB Duration                       : 1 h 50 min Overall bit rate mode          : Constant Overall bit rate               : 8 150 kb/s Encoded date                   : UTC 2022-06-06 05:29:07 Writing application            : mkvmerge v50.0.0 ('Awakenings') 64-bit Writing library                : libebml v1.4.0 + libmatroska v1.6.2 Cover                          : Yes Attachments                    : cover.png  Video ID                             : 1 Format                         : AVC Format/Info                    : Advanced Video Codec Format profile                 : [email protected] Format settings                : CABAC / 4 Ref Frames Format settings, CABAC         : Yes Format settings, Reference fra : 4 frames Codec ID                       : V_MPEG4/ISO/AVC Duration                       : 1 h 50 min Bit rate mode                  : Constant Bit rate                       : 7 508 kb/s Nominal bit rate               : 10 000 kb/s Width                          : 1 920 pixels Height                         : 1 040 pixels Display aspect ratio           : 1.85:1 Frame rate mode                : Constant Frame rate                     : 23.976 (24000/1001) FPS Color space                    : YUV Chroma subsampling             : 4:2:0 Bit depth                      : 8 bits Scan type                      : Progressive Bits/(Pixel*Frame)             : 0.157 Stream size                    : 5.77 GiB (92%) Default                        : Yes Forced                         : No Color range                    : Limited Color primaries                : BT.709 Transfer characteristics       : BT.709 Matrix coefficients            : BT.709  Audio ID                             : 2 Format                         : E-AC-3 Format/Info                    : Enhanced AC-3 Commercial name                : Dolby Digital Plus Codec ID                       : A_EAC3 Duration                       : 1 h 50 min Bit rate mode                  : Constant Bit rate                       : 640 kb/s Channel(s)                     : 6 channels Channel layout                 : L R C LFE Ls Rs Sampling rate                  : 48.0 kHz Frame rate                     : 31.250 FPS (1536 SPF) Compression mode               : Lossy Stream size                    : 504 MiB (8%) Language                       : Japanese Service kind                   : Complete Main Default                        : Yes Forced                         : No

【日影】[MagicStar] 青年之树 / 青年の樹 1960 [WEBDL] [720p] [AMZN]【生】

相关文章