派导航漫画网,acg游戏社区_[MagicStar] 猫衡宇 / ねこ物件 EP08 [WEBDL] [1080p] [AMZN]【生】

HD 1080p from Prime Video.
Use CBR bitrate mode.
派导航漫画网,acg游戏社区_[MagicStar] 猫衡宇 / ねこ物件 EP08 [WEBDL] [1080p] [AMZN]【生】
派导航漫画网,acg游戏社区_[MagicStar] 猫衡宇 / ねこ物件 EP08 [WEBDL] [1080p] [AMZN]【生】

General Unique ID                      : 322226395234308129576896929051449140708 (0xF26A8BDD4A4CFF04404D7C1CAFFAA5E4) Complete name                  : Neko.Bukken.EP08.1080p.AMZN.WEB-DL.DDP2.0.H.264-MagicStar.mkv Format                         : Matroska Format version                 : Version 4 File size                      : 1.09 GiB Duration                       : 23 min 24 s Overall bit rate mode          : Constant Overall bit rate               : 6 651 kb/s Encoded date                   : UTC 2022-06-10 08:37:42 Writing application            : mkvmerge v50.0.0 ('Awakenings') 64-bit Writing library                : libebml v1.4.0 + libmatroska v1.6.2 Cover                          : Yes Attachments                    : cover.png  Video ID                             : 1 Format                         : AVC Format/Info                    : Advanced Video Codec Format profile                 : [email protected] Format settings                : CABAC / 4 Ref Frames Format settings, CABAC         : Yes Format settings, Reference fra : 4 frames Codec ID                       : V_MPEG4/ISO/AVC Duration                       : 23 min 24 s Bit rate mode                  : Constant Bit rate                       : 6 411 kb/s Nominal bit rate               : 10 000 kb/s Width                          : 1 920 pixels Height                         : 1 080 pixels Display aspect ratio           : 16:9 Frame rate mode                : Constant Frame rate                     : 23.976 (24000/1001) FPS Color space                    : YUV Chroma subsampling             : 4:2:0 Bit depth                      : 8 bits Scan type                      : Progressive Bits/(Pixel*Frame)             : 0.129 Stream size                    : 1.05 GiB (96%) Default                        : Yes Forced                         : No Color range                    : Limited Color primaries                : BT.709 Transfer characteristics       : BT.709 Matrix coefficients            : BT.709  Audio ID                             : 2 Format                         : E-AC-3 Format/Info                    : Enhanced AC-3 Commercial name                : Dolby Digital Plus Codec ID                       : A_EAC3 Duration                       : 23 min 24 s Bit rate mode                  : Constant Bit rate                       : 224 kb/s Channel(s)                     : 2 channels Channel layout                 : L R Sampling rate                  : 48.0 kHz Frame rate                     : 31.250 FPS (1536 SPF) Compression mode               : Lossy Stream size                    : 37.5 MiB (3%) Language                       : Japanese Service kind                   : Complete Main Default                        : Yes Forced                         : No

[MagicStar] 新娘未满ESCASPE / 花嫁未満エスケープ EP10 [WEBDL] [1080p] [AMZN]【生】

相关文章