acg导航a漫,hacg 导航_【日影】[MagicStar] 手枪就是我的通行证 / 拳銃は俺のパスポート 1967 [WEBDL] [1080p] [AMZN]【生】

HD 1080p from Prime Video.
acg导航a漫,hacg 导航_【日影】[MagicStar] 手枪就是我的通行证 / 拳銃は俺のパスポート 1967 [WEBDL] [1080p] [AMZN]【生】
acg导航a漫,hacg 导航_【日影】[MagicStar] 手枪就是我的通行证 / 拳銃は俺のパスポート 1967 [WEBDL] [1080p] [AMZN]【生】

General Unique ID                      : 184497070845538200977645979845825109670 (0x8ACCD7E515DBA1F64AA715DCAE1B9EA6) Complete name                  : Kenjuu.wa.Ore.no.Passport.1967.1080p.AMZN.WEB-DL.DDP2.0.H.264-MagicStar.mkv Format                         : Matroska Format version                 : Version 4 File size                      : 8.84 GiB Duration                       : 1 h 24 min Overall bit rate               : 15.0 Mb/s Encoded date                   : UTC 2022-06-04 07:56:23 Writing application            : mkvmerge v50.0.0 ('Awakenings') 64-bit Writing library                : libebml v1.4.0 + libmatroska v1.6.2 Cover                          : Yes Attachments                    : cover.png  Video ID                             : 1 Format                         : AVC Format/Info                    : Advanced Video Codec Format profile                 : [email protected] Format settings                : CABAC / 4 Ref Frames Format settings, CABAC         : Yes Format settings, Reference fra : 4 frames Codec ID                       : V_MPEG4/ISO/AVC Duration                       : 1 h 24 min Bit rate                       : 14.8 Mb/s Width                          : 1 920 pixels Height                         : 800 pixels Display aspect ratio           : 2.40:1 Frame rate mode                : Constant Frame rate                     : 23.976 (24000/1001) FPS Color space                    : YUV Chroma subsampling             : 4:2:0 Bit depth                      : 8 bits Scan type                      : Progressive Bits/(Pixel*Frame)             : 0.401 Stream size                    : 8.71 GiB (98%) Default                        : Yes Forced                         : No Color range                    : Limited Color primaries                : BT.709 Transfer characteristics       : BT.709 Matrix coefficients            : BT.709  Audio ID                             : 2 Format                         : E-AC-3 Format/Info                    : Enhanced AC-3 Commercial name                : Dolby Digital Plus Codec ID                       : A_EAC3 Duration                       : 1 h 24 min Bit rate mode                  : Constant Bit rate                       : 224 kb/s Channel(s)                     : 2 channels Channel layout                 : L R Sampling rate                  : 48.0 kHz Frame rate                     : 31.250 FPS (1536 SPF) Compression mode               : Lossy Stream size                    : 135 MiB (1%) Language                       : Japanese Service kind                   : Complete Main Default                        : Yes Forced                         : No

日影】[MagicStar] 无赖之诗 / やくざの詩 1960 [WEBDL] [720p] [AMZN]【生】

相关文章