【日影】[MagicStar] 高度7000米 恐怖的四小时 / 高度7000米 恐怖の四時間 1959 [WEBDL] [1080p] [AMZN]【生】_acg动漫盒子,acg漫画网导航派

HD 1080p from Prime Video.
【日影】[MagicStar] 高度7000米 恐怖的四小时 / 高度7000米 恐怖の四時間 1959 [WEBDL] [1080p] [AMZN]【生】_acg动漫盒子,acg漫画网导航派
【日影】[MagicStar] 高度7000米 恐怖的四小时 / 高度7000米 恐怖の四時間 1959 [WEBDL] [1080p] [AMZN]【生】_acg动漫盒子,acg漫画网导航派

General Unique ID                      : 227756591512191989912337011993373154422 (0xAB5852EF34ACAC85E0A807AD996D9C76) Complete name                  : Koudo.7000.Meters.Kyoufu.no.4.Jikan.1959.1080p.AMZN.WEB-DL.DDP2.0.H.264-MagicStar.mkv Format                         : Matroska Format version                 : Version 4 File size                      : 7.88 GiB Duration                       : 1 h 15 min Overall bit rate               : 14.9 Mb/s Encoded date                   : UTC 2022-06-04 07:55:09 Writing application            : mkvmerge v50.0.0 ('Awakenings') 64-bit Writing library                : libebml v1.4.0 + libmatroska v1.6.2 Cover                          : Yes Attachments                    : cover.png  Video ID                             : 1 Format                         : AVC Format/Info                    : Advanced Video Codec Format profile                 : [email protected] Format settings                : CABAC / 4 Ref Frames Format settings, CABAC         : Yes Format settings, Reference fra : 4 frames Codec ID                       : V_MPEG4/ISO/AVC Duration                       : 1 h 15 min Bit rate                       : 14.7 Mb/s Width                          : 1 920 pixels Height                         : 816 pixels Display aspect ratio           : 2.35:1 Frame rate mode                : Constant Frame rate                     : 23.976 (24000/1001) FPS Color space                    : YUV Chroma subsampling             : 4:2:0 Bit depth                      : 8 bits Scan type                      : Progressive Bits/(Pixel*Frame)             : 0.391 Stream size                    : 7.76 GiB (98%) Default                        : Yes Forced                         : No Color range                    : Limited Color primaries                : BT.709 Transfer characteristics       : BT.709 Matrix coefficients            : BT.709  Audio ID                             : 2 Format                         : E-AC-3 Format/Info                    : Enhanced AC-3 Commercial name                : Dolby Digital Plus Codec ID                       : A_EAC3 Duration                       : 1 h 15 min Bit rate mode                  : Constant Bit rate                       : 224 kb/s Channel(s)                     : 2 channels Channel layout                 : L R Sampling rate                  : 48.0 kHz Frame rate                     : 31.250 FPS (1536 SPF) Compression mode               : Lossy Stream size                    : 121 MiB (2%) Language                       : Japanese Service kind                   : Complete Main Default                        : Yes Forced                         : No

[桜都字幕组] 街角魔族 2丁目 / Machikado Mazoku: 2-choume [08][1080P][简繁内封]

相关文章