[MagicStar] 异天下居酒屋 阿信 第二季 ~魔女与大主教篇~ / 異天下居酒屋 のぶ Season2 ~魔女と大司教編~ EP02 [HDTV] [1080p]【生】_里番acg绅士导航,nyahentai.net

HD 1080p from WOWOW Prime.
[MagicStar] 异天下居酒屋 阿信 第二季 ~魔女与大主教篇~ / 異天下居酒屋 のぶ Season2 ~魔女と大司教編~ EP02 [HDTV] [1080p]【生】_里番acg绅士导航,nyahentai.net
[MagicStar] 异天下居酒屋 阿信 第二季 ~魔女与大主教篇~ / 異天下居酒屋 のぶ Season2 ~魔女と大司教編~ EP02 [HDTV] [1080p]【生】_里番acg绅士导航,nyahentai.net

General Unique ID                      : 192884765162181511413778156230171150575 (0x911C41272FD831EF96DDD8DB41CFC8EF) Complete name                  : [MagicStar] Isekai Izakaya Nobu Season2 ~Majo to Daishikyou-hen~ EP02 [HDTV] [1080p].mkv Format                         : Matroska Format version                 : Version 2 File size                      : 1.14 GiB Duration                       : 24 min 40 s Overall bit rate               : 6 608 kb/s Encoded date                   : UTC 2022-06-04 04:43:33 Writing application            : mkvmerge v8.5.2 ('Crosses') 32bit Writing library                : libebml v1.3.3 + libmatroska v1.4.4  Video ID                             : 1 Format                         : AVC Format/Info                    : Advanced Video Codec Format profile                 : [email protected] Format settings                : CABAC / 4 Ref Frames Format settings, CABAC         : Yes Format settings, Reference fra : 4 frames Codec ID                       : V_MPEG4/ISO/AVC Duration                       : 24 min 40 s Bit rate                       : 6 286 kb/s Width                          : 1 920 pixels Height                         : 1 080 pixels Display aspect ratio           : 16:9 Frame rate mode                : Constant Frame rate                     : 29.970 (30000/1001) FPS Color space                    : YUV Chroma subsampling             : 4:2:0 Bit depth                      : 8 bits Scan type                      : Progressive Bits/(Pixel*Frame)             : 0.101 Stream size                    : 1.08 GiB (95%) Writing library                : x264 core 148 r2638 7599210 Encoding settings              : cabac=1 / ref=3 / deblock=1:0:0 / analyse=0x3:0x113 / me=umh / subme=8 / psy=1 / psy_rd=1.00:0.00 / mixed_ref=0 / me_range=16 / chroma_me=1 / trellis=2 / 8x8dct=1 / cqm=0 / deadzone=21,11 / fast_pskip=1 / chroma_qp_offset=-2 / threads=24 / lookahead_threads=4 / sliced_threads=0 / nr=0 / decimate=1 / interlaced=0 / bluray_compat=0 / constrained_intra=0 / bframes=3 / b_pyramid=2 / b_adapt=2 / b_bias=0 / direct=3 / weightb=1 / open_gop=0 / weightp=2 / keyint=300 / keyint_min=29 / scenecut=40 / intra_refresh=0 / rc_lookahead=40 / rc=crf / mbtree=1 / crf=18.0 / qcomp=0.60 / qpmin=0 / qpmax=69 / qpstep=4 / ip_ratio=1.40 / aq=1:1.00 Default                        : Yes Forced                         : No  Audio ID                             : 2 Format                         : AAC LC Format/Info                    : Advanced Audio Codec Low Complexity Codec ID                       : A_AAC-2 Duration                       : 24 min 40 s Bit rate                       : 320 kb/s Channel(s)                     : 2 channels Channel layout                 : L R Sampling rate                  : 48.0 kHz Frame rate                     : 46.875 FPS (1024 SPF) Compression mode               : Lossy Delay relative to video        : 9 ms Stream size                    : 56.5 MiB (5%) Language                       : Japanese Default                        : Yes Forced                         : No

[猎户不鸽宣布组] 恋爱要在天下征服后 Koi wa Sekai Seifuku no Ato de [09] [1080p] [简中] [2022年4月番]

相关文章