【日影】[MagicStar] 潮骚 / 潮騒 1964 [WEBDL] [1080p] [AMZN]【生】_acg次元网powered,梦颜福利导航

HD 1080p from Prime Video.
【日影】[MagicStar] 潮骚 / 潮騒 1964 [WEBDL] [1080p] [AMZN]【生】_acg次元网powered,梦颜福利导航
【日影】[MagicStar] 潮骚 / 潮騒 1964 [WEBDL] [1080p] [AMZN]【生】_acg次元网powered,梦颜福利导航

General Unique ID                      : 49218304376145246799722595004357521785 (0x250719C24C393018D5884DFC470FB179) Complete name                  : Shiosai.1964.1080p.AMZN.WEB-DL.DDP2.0.H.264-MagicStar.mkv Format                         : Matroska Format version                 : Version 4 File size                      : 8.21 GiB Duration                       : 1 h 21 min Overall bit rate               : 14.4 Mb/s Encoded date                   : UTC 2022-06-04 00:40:04 Writing application            : mkvmerge v50.0.0 ('Awakenings') 64-bit Writing library                : libebml v1.4.0 + libmatroska v1.6.2 Cover                          : Yes Attachments                    : cover.png  Video ID                             : 1 Format                         : AVC Format/Info                    : Advanced Video Codec Format profile                 : [email protected] Format settings                : CABAC / 4 Ref Frames Format settings, CABAC         : Yes Format settings, Reference fra : 4 frames Codec ID                       : V_MPEG4/ISO/AVC Duration                       : 1 h 21 min Bit rate                       : 14.2 Mb/s Width                          : 1 920 pixels Height                         : 800 pixels Display aspect ratio           : 2.40:1 Frame rate mode                : Constant Frame rate                     : 23.976 (24000/1001) FPS Color space                    : YUV Chroma subsampling             : 4:2:0 Bit depth                      : 8 bits Scan type                      : Progressive Bits/(Pixel*Frame)             : 0.384 Stream size                    : 8.08 GiB (98%) Default                        : Yes Forced                         : No Color range                    : Limited Color primaries                : BT.709 Transfer characteristics       : BT.709 Matrix coefficients            : BT.709  Audio ID                             : 2 Format                         : E-AC-3 Format/Info                    : Enhanced AC-3 Commercial name                : Dolby Digital Plus Codec ID                       : A_EAC3 Duration                       : 1 h 21 min Bit rate mode                  : Constant Bit rate                       : 224 kb/s Channel(s)                     : 2 channels Channel layout                 : L R Sampling rate                  : 48.0 kHz Frame rate                     : 31.250 FPS (1536 SPF) Compression mode               : Lossy Stream size                    : 131 MiB (2%) Language                       : Japanese Service kind                   : Complete Main Default                        : Yes Forced                         : No

[MagicStar] 异天下居酒屋 阿信 第二季 ~魔女与大主教篇~ / 異天下居酒屋 のぶ Season2 ~魔女と大司教編~ EP02 [HDTV] [1080p]【生】

相关文章