优优漫画番acg,agc网站_[MagicStar] 单恋美食家日志 第二季 / 片恋グルメ日記2 EP02 [WEBDL] [1080p] [HULU]【生】

HD 1080p from HULU JAPAN.
优优漫画番acg,agc网站_[MagicStar] 单恋美食家日志 第二季 / 片恋グルメ日記2 EP02 [WEBDL] [1080p] [HULU]【生】
优优漫画番acg,agc网站_[MagicStar] 单恋美食家日志 第二季 / 片恋グルメ日記2 EP02 [WEBDL] [1080p] [HULU]【生】

General Unique ID                      : 255586403396161961735039270145549185944 (0xC0482698B9767BFEE36302D37378B398) Complete name                  : Katakoi.Gurume.Nikki.S02EP02.1080p.HULU.WEB-DL.AAC2.0.H.264-MagicStar.mkv Format                         : Matroska Format version                 : Version 4 File size                      : 558 MiB Duration                       : 24 min 47 s Overall bit rate               : 3 145 kb/s Encoded date                   : UTC 2022-06-03 04:30:32 Writing application            : mkvmerge v50.0.0 ('Awakenings') 64-bit Writing library                : libebml v1.4.0 + libmatroska v1.6.2 Cover                          : Yes Attachments                    : cover.png  Video ID                             : 1 Format                         : AVC Format/Info                    : Advanced Video Codec Format profile                 : [email protected] Format settings                : CABAC / 4 Ref Frames Format settings, CABAC         : Yes Format settings, Reference fra : 4 frames Codec ID                       : V_MPEG4/ISO/AVC Duration                       : 24 min 47 s Bit rate                       : 3 017 kb/s Width                          : 1 920 pixels Height                         : 1 080 pixels Display aspect ratio           : 16:9 Frame rate mode                : Constant Frame rate                     : 29.970 (29970/1000) FPS Original frame rate            : 29.970 (30000/1001) FPS Color space                    : YUV Chroma subsampling             : 4:2:0 Bit depth                      : 8 bits Scan type                      : Progressive Bits/(Pixel*Frame)             : 0.049 Stream size                    : 535 MiB (96%) Default                        : Yes Forced                         : No Color range                    : Limited Color primaries                : BT.709 Transfer characteristics       : BT.709 Matrix coefficients            : BT.709  Audio ID                             : 2 Format                         : AAC LC Format/Info                    : Advanced Audio Codec Low Complexity Codec ID                       : A_AAC-2 Duration                       : 24 min 47 s Bit rate                       : 125 kb/s Channel(s)                     : 2 channels Channel layout                 : L R Sampling rate                  : 48.0 kHz Frame rate                     : 46.875 FPS (1024 SPF) Compression mode               : Lossy Stream size                    : 22.2 MiB (4%) Language                       : Japanese Default                        : Yes Forced                         : No

[MagicStar] 特搜9 第五季 / Tokusou 9 Season5 EP09 [WEBDL] [1080p]【生】【附日字】

相关文章