夜藏姬阁福利导航acg,hentai导航网_[MagicStar] 潘多拉的果实~科学犯罪搜查档案~ / パンドラの果実~科学犯罪捜査ファイル~ EP02 [WEBDL] [1080p] [HULU]【生】【附日字】

HD 1080p from HULU JAPAN.
夜藏姬阁福利导航acg,hentai导航网_[MagicStar] 潘多拉的果实~科学犯罪搜查档案~ / パンドラの果実~科学犯罪捜査ファイル~ EP02 [WEBDL] [1080p] [HULU]【生】【附日字】
夜藏姬阁福利导航acg,hentai导航网_[MagicStar] 潘多拉的果实~科学犯罪搜查档案~ / パンドラの果実~科学犯罪捜査ファイル~ EP02 [WEBDL] [1080p] [HULU]【生】【附日字】

General Unique ID                      : 293586013675683718989623746679731589419 (0xDCDE9C0822859E63C90598FE804F112B) Complete name                  : Pandora.no.Kajitsu.Kagaku.Hanzai.Sousa.File.EP02.1080p.HULU.WEB-DL.AAC2.0.H.264-MagicStar.mkv Format                         : Matroska Format version                 : Version 4 File size                      : 1.19 GiB Duration                       : 42 min 0 s Overall bit rate               : 4 057 kb/s Encoded date                   : UTC 2022-05-02 09:21:42 Writing application            : mkvmerge v50.0.0 ('Awakenings') 64-bit Writing library                : libebml v1.4.0 + libmatroska v1.6.2 Cover                          : Yes Attachments                    : cover.png  Video ID                             : 1 Format                         : AVC Format/Info                    : Advanced Video Codec Format profile                 : [email protected] Format settings                : CABAC / 4 Ref Frames Format settings, CABAC         : Yes Format settings, Reference fra : 4 frames Codec ID                       : V_MPEG4/ISO/AVC Duration                       : 42 min 0 s Bit rate                       : 3 929 kb/s Width                          : 1 920 pixels Height                         : 1 080 pixels Display aspect ratio           : 16:9 Frame rate mode                : Constant Frame rate                     : 29.970 (29970/1000) FPS Original frame rate            : 29.970 (30000/1001) FPS Color space                    : YUV Chroma subsampling             : 4:2:0 Bit depth                      : 8 bits Scan type                      : Progressive Bits/(Pixel*Frame)             : 0.063 Stream size                    : 1.15 GiB (97%) Default                        : Yes Forced                         : No Color range                    : Limited Color primaries                : BT.709 Transfer characteristics       : BT.709 Matrix coefficients            : BT.709  Audio ID                             : 2 Format                         : AAC LC Format/Info                    : Advanced Audio Codec Low Complexity Codec ID                       : A_AAC-2 Duration                       : 42 min 0 s Bit rate                       : 125 kb/s Channel(s)                     : 2 channels Channel layout                 : L R Sampling rate                  : 48.0 kHz Frame rate                     : 46.875 FPS (1024 SPF) Compression mode               : Lossy Stream size                    : 37.7 MiB (3%) Language                       : Japanese Default                        : Yes Forced                         : No

[MagicStar] DOGENGERS 高校篇 / ドゲンジャーズ~ハイスクール~ EP04 [WEBDL] [1080p] [AMZN]【生】

相关文章