韩国污漫最新网址导航,禁漫 hentai comic_[MagicStar] 迈向未来的倒数10秒 / 未来への10カウント EP01 [WEBDL] [1080p] [AMZN]【生】【附日字】

HD 1080p from Prime Video.
Use CBR bitrate mode.
Japanese subtitles added.
韩国污漫最新网址导航,禁漫 hentai comic_[MagicStar] 迈向未来的倒数10秒 / 未来への10カウント EP01 [WEBDL] [1080p] [AMZN]【生】【附日字】
韩国污漫最新网址导航,禁漫 hentai comic_[MagicStar] 迈向未来的倒数10秒 / 未来への10カウント EP01 [WEBDL] [1080p] [AMZN]【生】【附日字】

General Unique ID                      : 237813495650135384157175803671531451432 (0xB2E936973CC7C4FE1C615DF64F2B7428) Complete name                  : Mirai.e.no.10.Count.EP01.1080p.AMZN.WEB-DL.DDP2.0.H.264-MagicStar.mkv Format                         : Matroska Format version                 : Version 4 File size                      : 3.65 GiB Duration                       : 57 min 33 s Overall bit rate mode          : Constant Overall bit rate               : 9 073 kb/s Encoded date                   : UTC 2022-04-19 21:18:10 Writing application            : mkvmerge v50.0.0 ('Awakenings') 64-bit Writing library                : libebml v1.4.0 + libmatroska v1.6.2 Cover                          : Yes Attachments                    : cover.png  Video ID                             : 1 Format                         : AVC Format/Info                    : Advanced Video Codec Format profile                 : [email protected] Format settings                : CABAC / 4 Ref Frames Format settings, CABAC         : Yes Format settings, Reference fra : 4 frames Codec ID                       : V_MPEG4/ISO/AVC Duration                       : 57 min 33 s Bit rate mode                  : Constant Bit rate                       : 8 843 kb/s Nominal bit rate               : 10 000 kb/s Width                          : 1 920 pixels Height                         : 1 080 pixels Display aspect ratio           : 16:9 Frame rate mode                : Constant Frame rate                     : 29.970 (29970/1000) FPS Original frame rate            : 29.970 (30000/1001) FPS Color space                    : YUV Chroma subsampling             : 4:2:0 Bit depth                      : 8 bits Scan type                      : Progressive Bits/(Pixel*Frame)             : 0.142 Stream size                    : 3.56 GiB (97%) Default                        : Yes Forced                         : No Color range                    : Limited Color primaries                : BT.709 Transfer characteristics       : BT.709 Matrix coefficients            : BT.709  Audio ID                             : 2 Format                         : E-AC-3 Format/Info                    : Enhanced AC-3 Commercial name                : Dolby Digital Plus Codec ID                       : A_EAC3 Duration                       : 57 min 33 s Bit rate mode                  : Constant Bit rate                       : 224 kb/s Channel(s)                     : 2 channels Channel layout                 : L R Sampling rate                  : 48.0 kHz Frame rate                     : 31.250 FPS (1536 SPF) Compression mode               : Lossy Stream size                    : 92.2 MiB (2%) Language                       : Japanese Service kind                   : Complete Main Default                        : Yes Forced                         : No

[NC-Raws] 我的异界之旅 / My Journey in an Alternate World - 32 (B-Global Donghua 1920x1080 HEVC AAC MKV)

相关文章